<svg width="413.23mm" height="141.91mm" clip-rule="evenodd" fill-rule="evenodd" image-rendering="optimizeQuality" shape-rendering="geometricPrecision" text-rendering="geometricPrecision" version="1.1" viewBox="0 0 41439 14231" xmlns="http://www.w3.org/2000/svg"><defs><font id="a" fill-rule="nonzero" font-weight="400" horiz-adv-x="834"><font-face font-family="Days One"><font-face-src><font-face-name name="Days One"/></font-face-src></font-face><missing-glyph><path d="m0 0"/></missing-glyph><glyph d="" horiz-adv-x="350" unicode=" "/><glyph d="M166.001 158.167c43.9983,0 65.999,-22.1682 65.999,-66.334l0 -30.8333c0,-20.4997 -5.66608,-36.4993 -16.834,-48.334 -11.3322,-11.6672 -27.6668,-17.4975 -49.1651,-17.4975l-60.0012 0c-21.4982,0 -37.8329,5.83036 -49.1651,17.4975 -11.1679,11.8347 -16.834,27.8343 -16.834,48.334l0 30.8333c0,21.5015 5.66608,37.8329 17.1657,49.3326 11.3322,11.3354 27.6668,17.0015 48.8333,17.0015l60.0012 0z" horiz-adv-x="272" unicode="."/><glyph d="M29.8347 350.166c0,65.3322 9.00001,121.5 27,168.333 18.1643,47.0004 43.8308,83.4998 76.9994,110.001 63.1644,50.3344 145.498,75.6658 246.998,75.6658l34.1672 0c101.667,0 184.001,-25.3315 247.169,-75.6658 69.333,-55.5012 103.999,-148.165 103.999,-278.334 0,-130.999 -34.6665,-223.834 -103.999,-278.833 -63.1676,-50.1669 -145.501,-75.1665 -247.169,-75.1665l-34.1672 0c-101.5,0 -183.833,24.9997 -246.998,75.1665 -69.333,54.9986 -103.999,147.833 -103.999,278.833zm368.166 215.833c-122.834,0 -184.168,-72.1644 -184.168,-216.165 0,-144 61.3347,-216 184.168,-216 122.666,0 183.998,72.0001 183.998,216 0,144 -61.3315,216.165 -183.998,216.165z" horiz-adv-x="795" unicode="0"/><glyph d="M313 704.166l106.998 0c94.0009,0 164.667,-18 212.003,-54.0001 47.4997,-36.0001 71.1658,-97.9984 71.1658,-186.333l0 -215.833c0,-92.6673 -23.5018,-157.832 -70.6665,-195.501 -47.0004,-37.6654 -117.168,-56.3322 -210.666,-56.3322l-124 0c-73.1694,0 -134.333,15.9997 -183.334,48.334 -49.0008,32.1668 -73.5012,72.6669 -73.5012,121.5 0,19.1661 5.66608,32.9979 17.1657,41.4986 11.3354,8.50073 22.1682,12.6657 32.6693,12.6657l58.1651 0c25.3347,0 46.6686,-14.3311 63.8344,-43.164 17.3332,-28.8361 51.3329,-43.1672 102.167,-43.1672l89.8326 0c40.0008,0 69.0012,7.99822 87.1655,24.1654 18,15.9997 27,46.1661 27,90.0001l0 18.1675 -205.999 0c-92.8348,0 -163.166,16.834 -211.165,50.4986 -48.0022,33.6679 -72.0001,89.8326 -72.0001,168.501 0,78.5005 23.9979,134.668 72.0001,168.333 47.999,33.8322 118.331,50.6661 211.165,50.6661zm17.0015 -300.331l188.997 0 0 59.9979c0,40.0008 -9.00001,67.1683 -27,81.1676 -18.1643,13.9993 -47.8315,20.999 -89.1658,20.999l-72.8312 0c-40.0008,0 -69.3362,-5.99786 -88.003,-17.665 -18.8311,-11.6672 -28.1661,-32.8336 -28.1661,-63.4994 0,-30.5015 9.33502,-51.6679 28.1661,-63.5026 18.6668,-11.6639 48.0022,-17.4975 88.003,-17.4975z" horiz-adv-x="743" unicode="9"/><glyph d="M69.8343 653.833c0,12.668 4.49858,23.6664 13.6658,32.6664 9.16724,9.16724 20.0012,13.6658 32.6664,13.6658l397 0c97.3332,0 169.166,-27.9978 215.334,-83.999 25.6649,-30.8324 38.6674,-70.3332 38.6674,-118.332 0,-48.0019 -22.0025,-89.9999 -66.0018,-125.836 62.5011,-33.4998 93.8352,-85.4985 93.8352,-156.166 0,-70.6648 -25.0016,-124.333 -75.0018,-160.832 -50.0003,-36.6661 -111.333,-55.0006 -183.832,-55.0006l-420.001 0c-12.6652,0 -23.4992,4.50141 -32.6664,13.5014 -9.16724,8.83275 -13.6658,19.6639 -13.6658,32.3319l0 608zm184 -522l279.331 0c25.1688,0 44.3338,7.50047 57.668,22.4986 13.3342,15.0009 20.0012,35.5011 20.0012,61.5004 0,25.9994 -6.66708,46.4995 -20.0012,61.5004 -13.3342,15.0009 -32.4992,22.5014 -57.668,22.5014l-279.331 0 0 -168.001zm0 296.334l261.331 0c20.5001,0 37.0006,6.16535 49.3341,18.3316 12.3335,12.1691 18.5017,29.3357 18.5017,51.3354 0,21.9997 -6.16819,39.1663 -18.5017,51.4998 -12.3335,12.3335 -28.834,18.4989 -49.3341,18.4989l-261.331 0 0 -139.666z" horiz-adv-x="825" unicode="B"/><glyph d="M13.1682 659.166c-2.00036,4.00072 -2.83465,8.16895 -2.83465,13.0007 0,4.66751 2.99893,10.5011 9.00001,17.5007 6.00108,6.99965 14.4986,10.5011 25.6665,10.5011l106.834 0c25.3315,0 44.8326,-15.5004 58.1651,-46.3336l189 -421 188.833 421c13.3357,30.4983 32.8336,45.9986 58.1683,46.3336l106.998 0c11.3354,0 20.0004,-3.50144 25.834,-10.5011 5.83358,-6.99965 8.83251,-12.8332 8.83251,-17.5007 0,-4.83179 -0.831068,-9.00001 -2.49965,-13.0007l-281.333 -609.334c-15.1654,-33.1654 -38.4997,-49.8319 -69.8322,-49.8319l-70.1672 0c-31.3325,0 -54.6669,16.6665 -69.8322,49.8319l-280.833 609.334z" horiz-adv-x="797" unicode="V"/><glyph d="M12.1664 659.166c-1.66536,4.00072 -2.33214,8.33323 -2.33214,13.5 0,5.00251 2.83143,10.8329 8.49751,17.5007 5.6693,6.66787 14.1668,10.0018 25.6697,10.0018l106.831 0c12.669,0 24.5004,-4.33573 35.169,-13.1682 10.8329,-8.83251 18.4993,-19.8329 22.9993,-33.1654l128.832 -386.669 119.168 386.669c9.4993,30.8333 28.8329,46.3336 58.1651,46.3336l89.8358 0c29.3322,0 48.6658,-15.5004 58.1651,-46.3336l119.001 -386.669 128.999 386.669c4.50001,13.3325 12.1664,24.3329 22.9993,33.1654 10.6686,8.83251 22.3358,13.1682 35.0015,13.1682l106.998 0c11.0004,0 19.5011,-3.33393 25.1672,-10.0018 5.66608,-6.66787 8.50073,-12.4982 8.50073,-17.5007 0,-5.16679 -0.666787,-9.4993 -2.00036,-13.5l-217.666 -609.334c-11.9989,-33.1654 -35.5008,-49.8319 -70.3347,-49.8319l-70.8308 0c-36.1676,0 -59.3344,16.6665 -69.8355,49.8319l-119.165 376 -119.001 -376c-10.8329,-33.1654 -34.1672,-49.8319 -69.8355,-49.8319l-71.3333 0c-34.499,0 -57.8333,16.6665 -69.8322,49.8319l-217.833 609.334z" horiz-adv-x="1120" unicode="W"/><glyph d="M94.5014 35.1666c-43.1688,29.999 -64.6667,72.3344 -64.6667,127.001 0,54.6661 21.4979,96.667 64.6667,126 43.166,29.1657 98.6654,43.8321 166.666,43.8321l161.665 0c0,38.1685 -7.99937,64.6667 -23.8337,79.6677 -15.9987,15.0009 -43.9993,22.3342 -83.8318,22.3342 -39.8324,0 -67.833,-9.83338 -83.999,-29.5001 -16.0016,-19.6668 -35.8356,-29.5001 -59.3348,-29.5001l-72.6661 0c-8.83275,0 -16.0016,2.83181 -21.8353,8.49826 -5.66645,5.66645 -8.49826,12.8353 -8.49826,21.3335 0,93.3335 88.6677,140.167 266.167,140.167 77.4992,0 139.666,-17.3338 186.5,-51.9987 46.8312,-34.6677 70.3332,-88.336 70.3332,-161.002l0 -302.165c0,-8.83558 -2.83464,-16.0016 -8.33385,-21.5008 -5.49921,-5.49921 -12.668,-8.33385 -21.5008,-8.33385l-94.1669 0c-8.83275,0 -15.9987,2.83464 -21.4979,8.5011 -5.50204,5.66645 -8.33385,12.8324 -8.33385,21.3335l0 15.1653c-51.4998,-36.8334 -110.835,-55.1678 -178.001,-55.0006 -67.1669,0.167244 -122.332,15.1682 -165.498,45.1672zm178.498 186.001c-22.8331,0 -40.833,-5.50204 -54,-16.5005 -13.1669,-11.1657 -19.8312,-25.5005 -19.8312,-43.0015 0,-17.6655 6.83149,-32.1647 20.5001,-43.4976 13.6658,-11.3357 33.1653,-17.1666 58.1641,-17.1666 50.1675,0 98.501,14.6664 145.001,43.9993l0 76.1669 -149.834 0z" horiz-adv-x="651" unicode="a"/><glyph d="M268.999 -9.83338c-68.0003,0 -124.832,24.0009 -170.665,71.8327 -45.6661,47.8346 -68.4992,116.501 -68.4992,205.835 0,89.3338 23.6664,157.833 70.9993,205.5 47.3329,47.6645 111.166,71.6655 191.166,71.6655 41.3348,0 88.3332,-8.33385 141.168,-24.9987l0 149.998c0,8.66834 2.83181,16.0016 8.49826,21.668 5.66645,5.66645 12.8353,8.49826 21.1663,8.49826l109.001 0c8.66834,0 16.0016,-2.83181 21.668,-8.49826 5.66645,-5.66645 8.49826,-12.9997 8.49826,-21.668l0 -640.165c0,-8.5011 -2.83181,-15.6671 -8.49826,-21.3335 -5.66645,-5.66645 -12.9997,-8.5011 -21.668,-8.5011l-93.8324 0c-8.83275,0 -16.0016,2.83464 -21.5008,8.5011 -5.49921,5.66645 -8.16661,12.8324 -8.16661,21.3335l0 15.1653c-51.4998,-36.4989 -111.333,-54.8334 -179.334,-54.8334zm58.1669 436.666c-45,0 -76.6658,-12.6652 -95.1675,-37.8312 -18.6661,-25.3332 -27.8305,-65.8346 -27.8305,-121.501 0,-55.6667 8.66551,-96.1653 26.331,-121.499 17.5011,-25.3332 44.0022,-38.1685 79.3332,-38.1685 35.3338,0 76.3341,14.6664 123.335,43.9993l0 255.333c-42.0009,13.1669 -77.3348,19.6668 -106.002,19.6668z" horiz-adv-x="662" unicode="d"/><glyph d="M105.001 61.5004c-50.1675,47.5001 -75.1663,115.999 -75.1663,205.333 0,89.3338 25.166,158 75.6651,205.999 50.4992,48.0019 120.333,72.1672 209.999,72.1672 89.501,0 159.335,-23.4992 209.336,-70.1659 50.1647,-46.6667 75.3335,-113.666 75.3335,-200.835l0 -27.8334c0,-8.83275 -3.00189,-16.166 -8.66834,-21.8324 -5.66645,-5.66645 -12.8324,-8.5011 -21.6652,-8.5011l-367.667 0c3.1663,-39.9997 14.6664,-69.1653 34.3332,-87.3325 19.834,-18.3345 51.3326,-27.4989 94.5014,-27.4989 43.3332,0 72.9977,9.83338 88.9993,29.3329 15.8315,19.4995 35.4982,29.5001 59.0003,29.8318l72.8333 0c8.66551,0 15.9987,-2.83181 21.6652,-8.49826 5.66645,-5.8337 8.5011,-12.9997 8.5011,-21.8353 0,-93.3335 -88.9993,-140 -267.001,-139.666 -89.8327,0 -159.834,23.8337 -209.999,71.3338zm96.1653 257.332l227.001 0c-3.1663,76.833 -40.833,115.169 -113,115.169 -72,0 -110.168,-38.3357 -114.001,-115.169z" horiz-adv-x="629" unicode="e"/><glyph d="M452.165 586l-67.3313 8.16661c-64.834,0 -107.002,-8.66551 -126.502,-25.9994 -19.4995,-17.5011 -29.3329,-53.5011 -29.3329,-108.167l0 -7.83496 176.834 0c8.66551,0 16.0016,-2.83181 21.668,-8.49826 5.66645,-5.8337 8.49826,-12.9997 8.49826,-21.8324l0 -58.0025c0,-8.83275 -2.83181,-15.9987 -8.49826,-21.4979 -5.66645,-5.50204 -13.0025,-8.33385 -21.668,-8.33385l-176.834 0 0 -304.166c0,-8.83558 -2.83181,-16.0016 -8.49826,-21.5008 -5.66929,-5.49921 -12.8353,-8.33385 -21.3335,-8.33385l-109.335 0c-8.83275,0 -15.9987,2.83464 -21.5008,8.33385 -5.49921,5.49921 -8.33102,12.6652 -8.33102,21.5008l0 430.166c0,90.8333 20.6646,155.166 61.9993,193 41.3319,38.0012 114.001,56.999 217.834,56.999 53.3338,0 90.6661,-1.99842 111.832,-5.83086 21.1663,-4.00252 34.5005,-8.83558 39.9997,-14.502 5.49921,-5.66645 8.33385,-12.3335 8.33385,-19.6668l0 -53.8327c0,-8.66551 -2.83464,-15.9987 -8.5011,-21.6652 -5.66645,-5.66929 -12.8324,-8.5011 -21.3335,-8.5011l-18 0z" horiz-adv-x="479" unicode="f"/><glyph d="M60.0009 637.166l0 16.6677c0,17.1666 5.00031,30.8324 14.9981,41.0003 9.83338,10.165 23.6664,15.1653 41.1675,15.1653l60.667 0c17.1666,0 30.8324,-5.00031 41.0003,-14.9981 10.0006,-9.83338 14.9981,-23.6664 14.9981,-41.1675l0 -16.6677c0,-17.1666 -4.83307,-30.8324 -14.8309,-41.0003 -9.83338,-9.99779 -23.6664,-15.1653 -41.1675,-15.1653l-60.667 0c-17.1666,0 -30.8324,5.16756 -41.0003,15.1653 -10.0006,10.1679 -15.1653,23.8337 -15.1653,41.0003zm1.99842 -607.331l0 463.331c0,8.83558 2.83464,16.0016 8.5011,21.5008 5.8337,5.49921 12.8324,8.33385 21.3335,8.33385l109.332 0c8.83275,0 16.0016,-2.83464 21.5008,-8.66834 5.49921,-5.66645 8.33385,-12.6652 8.33385,-21.1663l0 -463.331c0,-8.83558 -2.83464,-16.0016 -8.66834,-21.5008 -5.66645,-5.49921 -12.6652,-8.33385 -21.1663,-8.33385l-109.332 0c-8.83275,0 -16.0016,2.83464 -21.5008,8.33385 -5.49921,5.49921 -8.33385,12.6652 -8.33385,21.5008z" horiz-adv-x="293" unicode="i"/><glyph d="M60.0009 29.8346l0 640.165c0,8.66834 2.83181,16.0016 8.66551,21.668 5.66645,5.66645 12.668,8.49826 21.1663,8.49826l109.335 0c8.49826,0 15.6642,-2.83181 21.3335,-8.49826 5.66645,-5.66645 8.49826,-12.9997 8.49826,-21.668l0 -640.165c0,-8.5011 -2.83181,-15.6671 -8.49826,-21.3335 -5.66929,-5.66645 -12.8353,-8.5011 -21.3335,-8.5011l-109.335 0c-8.49826,0 -15.4998,2.83464 -21.1663,8.5011 -5.8337,5.66645 -8.66551,12.8324 -8.66551,21.3335z" horiz-adv-x="289" unicode="l"/><glyph d="M60.0012 29.8347l0 474.997c0,8.83573 2.83143,16.0029 8.66501,21.8332 5.66608,5.6693 12.6657,8.50073 21.1665,8.50073l109.334 0c8.83251,0 15.9997,-2.83143 21.5015,-8.50073 5.49858,-5.83036 8.33323,-12.9975 8.33323,-21.8332l0 -30.6658c23.4986,22.6675 46.4979,40.1683 69.1655,52.499 22.5,12.1697 49.8351,18.335 81.6669,18.335 75.8333,0 133.335,-31.3325 172.501,-93.8333 60.4972,62.8326 122.499,94.1651 186.166,94.0009 63.6669,-0.167502 113.998,-19.3336 150.832,-57.669 37.0018,-38.1647 55.5012,-97.3316 55.5012,-177.497l0 -280.166c0,-8.83573 -2.83465,-16.0029 -8.33323,-21.5015 -5.5018,-5.49858 -12.6657,-8.33323 -21.5015,-8.33323l-108.831 0c-8.83573,0 -16.0029,2.83465 -21.669,8.50073 -5.83358,5.66608 -8.66501,12.8332 -8.66501,21.334l0 280.166c0,78.1655 -28.3336,117.164 -84.8333,116.833 -34.6665,0 -70.1672,-24.9997 -107.002,-74.8348 2.00036,-13.9993 3.00215,-27.9986 3.00215,-41.9979l0 -280.166c0,-8.83573 -3.00215,-16.0029 -8.66823,-21.5015 -5.66608,-5.49858 -12.6657,-8.33323 -21.1665,-8.33323l-108.834 0c-8.83251,0 -16.1639,2.83465 -21.8332,8.50073 -5.66608,5.66608 -8.49751,12.8332 -8.49751,21.334l0 280.166c0,78.1655 -28.3336,117.164 -85.0008,116.833 -36.1676,0 -70.834,-23.3343 -103.999,-69.8322l0 -327.167c0,-8.83573 -2.83465,-16.0029 -8.50073,-21.5015 -5.66608,-5.49858 -12.8332,-8.33323 -21.334,-8.33323l-109.334 0c-8.83251,0 -15.9997,2.83465 -21.4982,8.33323 -5.5018,5.49858 -8.33323,12.6657 -8.33323,21.5015z" horiz-adv-x="1004" unicode="m"/><glyph d="M60.0009 29.8346l0 474.998c0,8.83275 2.83181,16.0016 8.66551,21.8324 5.66645,5.66645 12.668,8.5011 21.1663,8.5011l109.335 0c8.49826,0 15.6642,-2.83464 21.3335,-8.5011 5.66645,-5.83086 8.49826,-12.9997 8.49826,-21.8324l0 -30.6652c56.0012,47.1656 115.668,70.8321 178.999,70.8321 63.3344,0 114.834,-19.3323 154.502,-57.9996 39.6652,-38.5001 59.4992,-97.5004 59.4992,-177.001l0 -280.165c0,-8.5011 -2.83464,-15.6671 -8.5011,-21.3335 -5.66645,-5.66645 -12.8324,-8.5011 -21.6652,-8.5011l-109.001 0c-8.33385,0 -15.4998,2.83464 -21.1663,8.5011 -5.66645,5.66645 -8.5011,12.8324 -8.5011,21.3335l0 280.165c0,77.8337 -31.1669,116.833 -93.3335,116.833 -40.6658,0 -84.3335,-23.332 -130.833,-69.8315l0 -327.166c0,-8.5011 -2.83181,-15.6671 -8.49826,-21.3335 -5.66929,-5.66645 -12.8353,-8.5011 -21.3335,-8.5011l-109.335 0c-8.49826,0 -15.4998,2.83464 -21.1663,8.5011 -5.8337,5.66645 -8.66551,12.8324 -8.66551,21.3335z" horiz-adv-x="682" unicode="n"/><glyph d="M430.166 411.168l-75.1663 2.83181c-43.9993,0 -86.0003,-24.0009 -126,-72.1672l0 -311.998c0,-8.83558 -2.83181,-16.0016 -8.49826,-21.5008 -5.66929,-5.49921 -12.8353,-8.33385 -21.3335,-8.33385l-109.335 0c-8.83275,0 -15.9987,2.83464 -21.5008,8.33385 -5.49921,5.49921 -8.33102,12.6652 -8.33102,21.5008l0 474.998c0,8.83275 2.83181,16.0016 8.66551,21.8324 5.66645,5.66645 12.668,8.5011 21.1663,8.5011l109.335 0c8.83275,0 15.9987,-2.83464 21.4979,-8.5011 5.50204,-5.83086 8.33385,-12.9997 8.33385,-21.8324l0 -30.6652c33.1682,23.9981 65.1685,41.8308 96.0009,53.4982 30.6652,11.5002 70.9993,17.3338 120.832,17.3338 8.83275,0 16.0016,-2.99905 21.668,-8.66551 5.66645,-5.66645 8.49826,-12.668 8.49826,-21.1691l0 -74.1656c0,-8.83275 -2.83181,-15.9987 -8.49826,-21.5008 -5.66645,-5.66645 -12.8353,-8.33102 -21.668,-8.33102l-15.6671 0z" horiz-adv-x="485" unicode="r"/><glyph d="M315 106l66.8333 5.83358 18 0c8.83251,0 16.1672,-2.83465 21.8332,-8.33323 5.66608,-5.49858 8.50073,-12.6657 8.50073,-21.5015l0 -52.164c0,-7.16715 -2.83465,-13.6675 -8.50073,-19.3336 -5.66608,-5.6693 -13.0007,-9.16751 -21.8332,-10.5011 -33.1686,-6.50037 -76.5001,-9.8343 -129.833,-9.8343 -139.999,0 -209.999,73.3337 -209.999,219.834l0 459.999c0,8.66823 2.83143,16.0029 8.66501,21.669 5.66608,5.66608 12.6657,8.50073 21.1665,8.50073l109.334 0c8.50073,0 15.6679,-2.83465 21.334,-8.50073 5.66608,-5.66608 8.50073,-13.0007 8.50073,-21.669l0 -163.166 136.166 0c8.50073,0 15.6647,-2.83143 21.334,-8.33323 5.66608,-5.49858 8.49751,-12.6657 8.49751,-21.4982l0 -58.0008c0,-8.83251 -2.83143,-15.9997 -8.49751,-21.5015 -5.6693,-5.49858 -12.8332,-8.33323 -21.334,-8.33323l-136.166 0 0 -179.166c0,-33.1654 7.83072,-58.8319 23.4986,-76.9994 15.5004,-18 36.3351,-27 62.5008,-27z" horiz-adv-x="450" unicode="t"/><glyph d="M60.0009 225.167l0 279.666c0,8.83275 2.83181,16.0016 8.66551,21.8324 5.66645,5.66645 12.668,8.5011 21.1663,8.5011l109.335 0c8.49826,0 15.6642,-2.83464 21.3335,-8.5011 5.66645,-5.83086 8.49826,-12.9997 8.49826,-21.8324l0 -279.666c0,-78.1681 30.9997,-117.334 92.8346,-117.334 40.6658,0 84.4979,23.502 131.332,70.3332l0 326.667c0,8.83275 2.83464,16.0016 8.5011,21.8324 5.66645,5.66645 12.8324,8.5011 21.1663,8.5011l109.001 0c8.83275,0 15.9987,-2.83464 21.6652,-8.5011 5.66645,-5.83086 8.5011,-12.9997 8.5011,-21.8324l0 -474.998c0,-8.5011 -2.83464,-15.6671 -8.5011,-21.3335 -5.66645,-5.66645 -12.8324,-8.5011 -21.6652,-8.5011l-109.001 0c-8.33385,0 -15.4998,2.83464 -21.1663,8.5011 -5.66645,5.66645 -8.5011,12.8324 -8.5011,21.3335l0 31.1641c-55.9984,-47.1656 -115.665,-70.8321 -178.999,-70.8321 -63.3344,0 -114.834,19.3323 -154.499,57.9996 -39.668,38.5001 -59.6664,97.5004 -59.6664,177.001z" horiz-adv-x="682" unicode="u"/></font><font id="b" fill-rule="nonzero" font-weight="400" horiz-adv-x="662"><font-face font-family="Futura Md BT"><font-face-src><font-face-name name="Futura Md BT Medium"/></font-face-src></font-face><missing-glyph><path d="m0 0"/></missing-glyph><glyph d="M263.998 0l0 616.001 -148 0 45.0035 91.9965 208.998 0 0 -707.997 -106.002 0z" horiz-adv-x="603" unicode="1"/><glyph d="M46.0013 191.002l110.997 0 0 -5.83458c0,-32.9997 11.1703,-59.1671 33.669,-78.8367 22.4987,-19.4993 52.9979,-29.3311 91.4976,-29.3311 43.3365,0 76.8351,10.8356 100.338,32.5008 23.6668,21.6652 35.5003,52.8336 35.5003,93.4992 0,42.6672 -12.168,74.8334 -36.3338,96.4986 -24.3361,21.6713 -60.6699,32.5008 -108.837,32.5008 -2.33018,0 -5.83458,-0.164269 -10.6653,-0.49889 -5.00106,-0.334621 -8.66364,-0.49889 -11.3345,-0.49889l0 93.9981c2.33626,0 5.83458,-0.164269 10.501,-0.49889 4.83071,-0.334621 8.33511,-0.49889 10.501,-0.49889 42.4969,0 74.3346,8.834 95.8355,26.6663 21.4948,17.668 32.3305,43.8293 32.3305,78.3318 0,30.4992 -9.66751,54.8353 -29.1668,72.8318 -19.335,18.1669 -45.332,27.1712 -77.8329,27.1712 -35.0014,0 -62.1665,-8.33511 -82.0004,-25.1696 -19.6636,-16.8345 -30.0003,-40.5013 -30.9981,-70.8302l-104.834 0c3.33404,60.828 24.0015,107.663 62.1665,140.164 38.0008,32.5008 90.9987,48.8364 158.665,48.8364 65.5006,0 117.336,-17.0048 155.666,-51.1666 38.1651,-34.1679 57.3358,-80.3334 57.3358,-138.667 0,-43.8354 -10.8356,-80.0049 -32.5008,-108.004 -21.6652,-28.1629 -51.6655,-45.1678 -90.1652,-50.9963 45.1617,-8.17084 79.6642,-28.0047 103.331,-59.6721 23.5026,-31.497 35.336,-73.3307 35.336,-125.495 0,-63.505 -22.1702,-113.838 -66.6687,-151.17 -44.3343,-37.1673 -104.499,-55.8331 -180.336,-55.8331 -68.6643,0 -124.163,19.0004 -166.167,56.8308 -41.8276,38.0008 -63.8275,89.0031 -65.8291,153.171z" horiz-adv-x="603" unicode="3"/><glyph d="M115.164 170.833c16.6702,-30.6695 38.0008,-54.166 64.0039,-70.3313 26.1674,-16.3356 55.1638,-24.5003 86.9954,-24.5003 47.3337,0 85.5048,14.9971 114.836,45.1678 29.3311,30.1646 43.9996,69.8324 43.9996,118.997 0,47.3337 -15.3317,85.6691 -46.1655,115.335 -30.8338,29.6657 -71.1648,44.4985 -120.999,44.4985 -30.0003,0 -57.6704,-5.16533 -83.3328,-15.3317 -25.5042,-10.3368 -48.0029,-25.5042 -67.6665,-45.837l-28.8383 6.50382 89.0031 362.662 337.833 0 0 -93.9981 -268.001 0 -41.998 -157.832c19.4993,8.00049 38.4997,13.9993 56.6666,17.9965 18.1669,3.83293 36.3338,5.83458 54.6649,5.83458 68.0011,0 123.335,-21.8295 165.832,-65.5006 42.6672,-43.5007 64.0039,-100.332 64.0039,-170.334 0,-79.9988 -24.835,-143.997 -74.6692,-191.665 -49.8342,-47.6683 -116.497,-71.4994 -200.164,-71.4994 -49.4996,0 -92.5014,8.49938 -128.999,25.6685 -36.3338,16.9988 -67.8368,43.3304 -94.1685,79.1653l77.1636 84.9998z" horiz-adv-x="603" unicode="5"/><glyph d="M429.003 485c0,42.6672 -11.6692,76.9994 -35.1717,103.002 -23.3322,25.997 -54.166,38.9986 -92.1668,38.9986 -42.6612,0 -76.3301,-12.6669 -100.83,-38.0008 -24.5003,-25.4981 -36.8327,-60.1649 -36.8327,-104 0,-44.9974 11.9977,-80.1691 36.1634,-105.667 24.0015,-25.4981 57.1715,-38.3354 99.5042,-38.3354 38.0008,0 69.1631,13.5004 93.1646,40.3371 24.1657,26.8305 36.1695,61.333 36.1695,103.666zm-65.3363 -216.001c-14.9971,-7.5016 -30.1646,-13.0016 -45.6667,-16.6641 -15.5021,-3.5044 -31.1684,-5.33569 -46.9991,-5.33569 -64.1682,0 -116.831,21.5009 -158.002,64.5028 -41.3348,42.8315 -61.9962,97.9953 -61.9962,165.498 0,73.501 23.1619,132.668 69.4978,177.666 46.3359,44.8331 107.669,67.3379 183.835,67.3379 70.8302,0 127.996,-21.8355 171.496,-65.6709 43.5007,-43.8293 65.1659,-101.329 65.1659,-172.5 0,-76.5005 -52.3287,-187.996 -156.828,-334.499l-12.3384 -17.4976 -125.83 -176.832 -87.9993 44.9974 205.664 268.999z" horiz-adv-x="603" unicode="9"/></font>
</defs>
</svg>
